Meri Pyari Bindu [2017][Hindi] HDCAM x264 [801MB]

  • Category Movies
  • Type Mp4
  • Language Hindi
  • Total size 801.4 MB
  • Uploaded By DLXXLin
  • Downloads 15604
  • Last checked 1 week ago
  • Date uploaded 2 weeks ago
  • Seeders 390
  • Leechers 115

Infohash : E631357DD5D1BDBA475E05181C4534EBAB9E0610



Image


Screenshots? - Click the links below
http://imagexxl.us/MeriPyariBindu/1.html

http://imagexxl.us/MeriPyariBindu/2.html

http://imagexxl.us/MeriPyariBindu/3.html

http://imagexxl.us/MeriPyariBindu/4.html

http://imagexxl.us/MeriPyariBindu/5.html


Code:


Format : MPEG-4
Format profile : Base Media / Version 2
Codec ID : mp42 (isom/iso2/avc1/mp41)
File size : 801 MiB
Duration : 2 h 8 min
Overall bit rate mode : Variable
Overall bit rate : 874 kb/s
Encoded date : UTC 2017-05-12 14:51:48
Tagged date : UTC 2017-05-12 14:51:48
Writing application : HandBrake 0.10.5 2016021100

Video
ID : 1
Format : AVC
Format/Info : Advanced Video Codec
Format profile : [email protected]
Format settings, CABAC : Yes
Format settings, ReFrames : 4 frames
Codec ID : avc1
Codec ID/Info : Advanced Video Coding
Duration : 2 h 8 min
Bit rate : 768 kb/s
Width : 720 pixels
Height : 480 pixels
Display aspect ratio : 16:9
Original display aspect ratio : 16:9
Frame rate mode : Variable
Frame rate : 29.970 (29970/1000) FPS
Minimum frame rate : 10.000 FPS
Maximum frame rate : 30.303 FPS
Standard : NTSC
Color space : YUV
Chroma subsampling : 4:2:0
Bit depth : 8 bits
Scan type : Progressive
Bits/(Pixel*Frame) : 0.074
Stream size : 706 MiB (88%)
Writing library : x264 core 142 r2491 24e4fed
Encoding settings : cabac=1 / ref=3 / deblock=1:0:0 / analyse=0x3:0x113 / me=hex / subme=7 / psy=1 / psy_rd=1.00:0.00 / mixed_ref=1 / me_range=16 / chroma_me=1 / trellis=1 / 8x8dct=1 / cqm=0 / deadzone=21,11 / fast_pskip=1 / chroma_qp_offset=-2 / threads=12 / lookahead_threads=2 / sliced_threads=0 / nr=0 / decimate=1 / interlaced=0 / bluray_compat=0 / constrained_intra=0 / bframes=3 / b_pyramid=2 / b_adapt=1 / b_bias=0 / direct=1 / weightb=1 / open_gop=0 / weightp=2 / keyint=300 / keyint_min=30 / scenecut=40 / intra_refresh=0 / rc_lookahead=40 / rc=abr / mbtree=1 / bitrate=768 / ratetol=1.0 / qcomp=0.60 / qpmin=0 / qpmax=69 / qpstep=4 / vbv_maxrate=17500 / vbv_bufsize=17500 / nal_hrd=none / filler=0 / ip_ratio=1.40 / aq=1:1.00
Encoded date : UTC 2017-05-12 14:51:48
Tagged date : UTC 2017-05-12 14:51:48
Color range : Limited
Color primaries : BT.601 NTSC
Transfer characteristics : BT.709
Matrix coefficients : BT.601

Audio
ID : 2
Format : AAC
Format/Info : Advanced Audio Codec
Format profile : LC
Codec ID : 40
Duration : 2 h 8 min
Bit rate mode : Variable
Bit rate : 96.0 kb/s
Channel(s) : 2 channels
Channel positions : Front: L R
Sampling rate : 48.0 kHz
Frame rate : 46.875 FPS (1024 spf)
Compression mode : Lossy
Stream size : 88.2 MiB (11%)
Title : Stereo / Stereo
Default : Yes
Alternate group : 1
Encoded date : UTC 2017-05-12 14:51:48
Tagged date : UTC 2017-05-12 14:51:48


Files:

Meri Pyari Bindu [2017][Hindi] HDCAM x264 [801MB]
  • Meri Pyari Bindu [2017][Hindi] HDCAM x264 [801MB].mp4 (801.4 MB)
  • Torrent Downloaded From ExtraTorrent.cc.txt (0.3 KB)
  • Torrent Downloaded from Glodls.to.txt (0.2 KB)

There are currently no comments. Feel free to leave one :)

Code:

  • udp://tracker.coppersurfer.tk:6969/announce
  • udp://tracker.pirateparty.gr:6969/announce
  • udp://tracker.coppersurfer.tk:6969
  • udp://tracker.opentrackr.org:1337/announce
  • udp://tracker.zer0day.to:1337/announce
  • udp://tracker.leechers-paradise.org:6969/announce
  • udp://eddie4.nl:6969/announce
  • udp://shadowshq.yi.org:6969/announce
  • udp://tracker.grepler.com:6969/announce
  • udp://ipv4.tracker.harry.lu:80/announce
  • udp://public.popcorn-tracker.org:6969/announce
  • udp://9.rarbg.me:2710/announce
  • udp://9.rarbg.to:2710/announce