Bahubali 2 The Conclusion 2017 Hindi Movies HD TS XviD Clean Audi...

  • Category Movies
  • Type Divx/Xvid
  • Language Hindi
  • Total size 705.7 MB
  • Uploaded By nehalpuja
  • Downloads 20669
  • Last checked 3 weeks ago
  • Date uploaded 3 weeks ago
  • Seeders 314
  • Leechers 190

Baahubali 2: The Conclusion

ActionAdventureWar

Our hero Shivudu comes to terms with his legacy and the responsibility placed on him by this knowledge. Amarendra Baahubali's quest aims to find the answer to the question "Why did Kattappa kill Mahendra Baahubali ?"

Infohash : 3ED177ABE9AB37149867B3A85F6388E1231B91BF

Bahubali 2 The Conclusion 2017 Hindi Movies HD TS XviD Clean Audio AAC New Source +Sample ☻rDX☻
================================================================================================

SCREEN SHOTS:



or

http://computerhosting.co.in/2017/4/highspeed/1.html

Format : Matroska
Format version : Version 4 / Version 2
File size : 699 MiB
Duration : 2 h 30 min
Overall bit rate mode : Variable
Overall bit rate : 650 kb/s
Movie name : Bahubali 2 The Conclusion 2017 Hindi Movies HD TS XviD Clean Audio AAC New Source ☻rDX☻

Video
ID : 1
Format : AVC
Format/Info : Advanced Video Codec
Format profile : [email protected]
Format settings, CABAC : Yes
Format settings, ReFrames : 4 frames
Codec ID : V_MPEG4/ISO/AVC
Duration : 2 h 30 min
Bit rate : 582 kb/s
Width : 640 pixels
Height : 272 pixels
Display aspect ratio : 2.35:1
Frame rate mode : Constant
Frame rate : 25.000 FPS
Color space : YUV
Chroma subsampling : 4:2:0
Bit depth : 8 bits
Scan type : Progressive
Bits/(Pixel*Frame) : 0.134
Stream size : 617 MiB (88%)
Title : ☻rDX☻
Writing library : XviD

Audio
ID : 2
Format : MPEG Audio
Format version : Version 2
Format profile : Layer 3
Mode : Joint stereo
Mode extension : MS Stereo
Codec ID : A_MPEG/L3
Codec ID/Hint : MP3
Duration : 2 h 34 min
Bit rate mode : Variable
Bit rate : 64.0 kb/s
Channel(s) : 2 channels
Sampling rate : 24.0 kHz
Compression mode : Lossy
Stream size : 70.9 MiB (10%)
Title : ☻rDX☻
Writing library : LAME3.99r
Encoding settings : -m j -V 4 -q 2 -lowpass 11 --abr 64
Language : Hindi
Default : Yes
Forced : No



IMDB : http://www.imdb.com/title/tt4849438

Files:

Bahubali 2 The Conclusion 2017 Hindi Movies HD TS XviD Clean Audio AAC New Source +Sample ☻rDX☻
  • Sample ~ Bahubali 2 The Conclusion 2017 Hindi Movies HD TS XviD Clean Audio AAC New Source ☻rDX☻.mkv (6.3 MB)
  • Bahubali 2 The Conclusion 2017 Hindi Movies HD TS XviD Clean Audio AAC New Source ☻rDX☻.mkv (699.5 MB)

Comments

Code:

  • udp://tracker.coppersurfer.tk:6969/announce
  • udp://tracker.openbittorrent.com:80/announce
  • udp://glotorrents.pw:6969/announce
  • udp://tracker.publicbt.com:80/announce
  • http://retracker.krs-ix.ru/announce
  • udp://tracker.pomf.se:80/announce
  • udp://explodie.org:6969/announce
  • http://mgtracker.org:2710/announce
  • http://tracker.aletorrenty.pl:2710/announce
  • http://tracker.btcake.com/announce
  • udp://tracker.openbittorrent.com:80/announce
  • udp://tracker.leechers-paradise.org:6969/announce
  • udp://coppersurfer.tk:6969/announce