Borstal 2017 Movies HDRip XviD AAC New Source with Sample ☻rDX☻...

  • Category Movies
  • Type HD
  • Language English
  • Total size 705.7 MB
  • Uploaded By nehalpuja
  • Downloads 57
  • Last checked 5 days ago
  • Date uploaded 6 days ago
  • Seeders 8
  • Leechers 9

Infohash : 81B42530EAF7FC0D60497951122EFB9753B9CD02

Borstal 2017 Movies HDRip XviD AAC New Source with Sample ☻rDX☻
================================================================================================

SCREEN SHOTS:



or

http://computerhosting.co.in/2017/4/free/1.html

Format : Matroska
Format version : Version 4 / Version 2
File size : 695 MiB
Duration : 1 h 27 min
Overall bit rate : 1 115 kb/s
Movie name : Borstal 2017 Movies HDRip XviD AAC New Source ☻rDX☻

Video
ID : 1
Format : MPEG-4 Visual
Format profile : Advanced [email protected]
Format settings, BVOP : 2
Format settings, QPel : No
Format settings, GMC : No warppoints
Format settings, Matrix : Default (H.263)
Muxing mode : Packed bitstream
Codec ID : V_MS/VFW/FOURCC / XVID
Codec ID/Hint : XviD
Duration : 1 h 27 min
Bit rate : 965 kb/s
Width : 640 pixels
Height : 272 pixels
Display aspect ratio : 2.35:1
Frame rate mode : Constant
Frame rate : 25.000 FPS
Color space : YUV
Chroma subsampling : 4:2:0
Bit depth : 8 bits
Scan type : Progressive
Compression mode : Lossy
Bits/(Pixel*Frame) : 0.222
Stream size : 601 MiB (87%)
Title : ☻rDX☻
Writing library : XviD 65
Default : Yes
Forced : No

Audio
ID : 2
Format : MPEG Audio
Format version : Version 1
Format profile : Layer 3
Mode : Joint stereo
Mode extension : MS Stereo
Codec ID : A_MPEG/L3
Codec ID/Hint : MP3
Duration : 1 h 27 min
Bit rate mode : Constant
Bit rate : 128 kb/s
Channel(s) : 2 channels
Sampling rate : 48.0 kHz
Compression mode : Lossy
Stream size : 80.0 MiB (12%)
Title : ☻rDX☻
Writing library : LAME3.99r
Encoding settings : -m j -V 4 -q 3 -lowpass 17 -b 128
Default : Yes
Forced : No



IMDB : http://www.imdb.com/title/tt5876322

Files:

Borstal 2017 Movies HDRip XviD AAC New Source with Sample ☻rDX☻
  • Sample ~ Borstal 2017 Movies HDRip XviD AAC New Source ☻rDX☻.mkv (11.0 MB)
  • Borstal 2017 Movies HDRip XviD AAC New Source ☻rDX☻.mkv (694.7 MB)

There are currently no comments. Feel free to leave one :)

Code:

  • udp://tracker.coppersurfer.tk:6969/announce
  • udp://tracker.openbittorrent.com:80/announce
  • udp://glotorrents.pw:6969/announce
  • udp://tracker.publicbt.com:80/announce
  • http://retracker.krs-ix.ru/announce
  • udp://tracker.pomf.se:80/announce
  • udp://explodie.org:6969/announce
  • http://mgtracker.org:2710/announce
  • http://tracker.aletorrenty.pl:2710/announce
  • http://tracker.btcake.com/announce
  • udp://tracker.openbittorrent.com:80/announce
  • udp://tracker.leechers-paradise.org:6969/announce
  • udp://coppersurfer.tk:6969/announce